Avril Lavigne - 2017 - Under My Skin (vinyl) (24-96)

seeders: 5
leechers: 5
updated:
Added by KATJohnRambo in Other


Avril Lavigne - 2017 - Under My Skin (vinyl) (24-96) Size: 337.4 MB (353789542 Bytes)

Description





--------------------------------------------------------------------------------
Analyzed: Avril Lavigne / Under My Skin
--------------------------------------------------------------------------------

DR Peak RMS Duration Track
--------------------------------------------------------------------------------
DR8 -7.94 dB -19.22 dB 2:55 01-Take Me Away
DR9 -7.11 dB -18.60 dB 3:11 02-Together
DR10 -5.99 dB -19.56 dB 3:19 03-Don't Tell Me
DR10 -6.54 dB -19.56 dB 2:55 04-He Wasn't
DR10 -6.60 dB -20.45 dB 3:41 05-How Does It Feel
DR10 -6.80 dB -19.42 dB 3:59 06-My Happy Ending
DR9 -7.20 dB -19.11 dB 3:29 07-Nobody's Home
DR9 -6.78 dB -19.26 dB 3:14 08-Forgotten
DR10 -6.54 dB -19.01 dB 3:26 09-Who Knows
DR10 -5.77 dB -19.01 dB 3:25 10-Fall To Pieces
DR9 -7.17 dB -18.42 dB 3:09 11-Freak Out
DR9 -6.63 dB -20.10 dB 3:29 12-Slipped Away
--------------------------------------------------------------------------------

Number of tracks: 12
Official DR value: DR9

Samplerate: 96000 Hz
Channels: 2
Bits per sample: 24
Bitrate: 1076 kbps
Codec: FLAC
================================================================================

Sharing Widget


Download torrent
Size: 337.4 MB (353789542 Bytes)
seeders:5
leechers:5
Avril Lavigne - 2017 - Under My Skin (vinyl) (24-96)



To share this torrent use the code below and insert it into comments, status messages, forum posts or your signature.

Torrent: Avril Lavigne - 2017 - Under My Skin (vinyl) (24-96)

Trackers

tracker name
udp://tracker.leechers-paradise.org:6969/announce
udp://tracker.zer0day.to:1337/announce
udp://tracker.leechers-paradise.org:6969/announce
udp://coppersurfer.tk:6969/announce
µTorrent compatible trackers list

Locations

name
KickassTorrents
Torrent hash: 0F3A57A95FDEB1961D2F433DEF9E9D8D462ABAC6

All Comments

audio
0/10
video
0/10
please, leave only comments related to that torrent
Sign In

Report a bug