Bleeding Steel 2017 720p HDTC x264 AAC [Moviezworldz]

seeders: 356
leechers: 100
updated:
Added by moviezworldz in Other


Bleeding Steel 2017 720p HDTC x264 AAC [Moviezworldz] Size: 904.0 MB (947912704 Bytes)

Description





General
Format : Matroska
Format version : Version 4 / Version 2
File size : 904 MiB
Duration : 1 h 46 min
Overall bit rate : 1 188 kb/s

Video
ID : 1
Format : AVC
Format/Info : Advanced Video Codec
Format profile : [email protected]
Format settings : CABAC / 4 Ref Frames
Format settings, CABAC : Yes
Format settings, ReFrames : 4 frames
Codec ID : V_MPEG4/ISO/AVC
Duration : 1 h 46 min
Bit rate : 1 100 kb/s
Width : 1 290 pixels
Height : 552 pixels
Display aspect ratio : 2.35:1
Frame rate mode : Constant
Frame rate : 25.000 FPS
Color space : YUV
Chroma subsampling : 4:2:0
Bit depth : 8 bits
Scan type : Progressive
Bits/(Pixel*Frame) : 0.062
Stream size : 829 MiB (92%)
Writing library : x264 core 148 r2708 86b7198
Default : Yes
Forced : No

Audio
ID : 2
Format : AAC
Format/Info : Advanced Audio Codec
Format profile : LC
Codec ID : A_AAC-2
Duration : 1 h 46 min
Bit rate : 96.0 kb/s
Channel(s) : 2 channels
Channel positions : Front: L R
Sampling rate : 44.1 kHz
Frame rate : 43.066 FPS (1024 SPF)
Compression mode : Lossy
Stream size : 73.1 MiB (8%)
Language : English
Default : Yes
Forced : No














Sharing Widget


Download torrent
Size: 904.0 MB (947912704 Bytes)
seeders:356
leechers:100
Bleeding Steel 2017 720p HDTC x264 AAC [Moviezworldz]



To share this torrent use the code below and insert it into comments, status messages, forum posts or your signature.

Torrent: Bleeding Steel 2017 720p HDTC x264 AAC [Moviezworldz]

Trackers

tracker name
udp://tracker.coppersurfer.tk:6969/announce
udp://tracker.pirateparty.gr:6969/announce
udp://eddie4.nl:6969/announce
udp://tracker.leechers-paradise.org:6969/announce
udp://tracker.opentrackr.org:1337/announce
udp://p4p.arenabg.ch:1337/announce
udp://p4p.arenabg.com:1337/announce
udp://9.rarbg.me:2790/announce
udp://9.rarbg.to:2750/announce
udp://tracker.coppersurfer.tk:80/announce
udp://public.popcorn-tracker.org:6969/announce
udp://tracker.opentrackr.org:1337/announce
udp://tracker.zer0day.to:1337/announce
udp://tracker.leechers-paradise.org:6969/announce
udp://tracker.zer0day.to:1337/announce
udp://tracker.leechers-paradise.org:6969/announce
udp://coppersurfer.tk:6969/announce
µTorrent compatible trackers list

Locations

name
KickassTorrents
Torrent hash: 4096ACED9C19969DD70F95ACA6AC69EE47ECDC36

All Comments

audio
0/10
video
0/10
please, leave only comments related to that torrent
Sign In

Report a bug