Jumanji Welcome to the Jungle (2017) HD-TS x264 Multi Auds-[Telug...

seeders: 23
leechers: 12
updated:
Added by ictv in Other


Description

Jumanji Welcome to the Jungle (2017) HD-TS x264 Multi Auds-[Telugu+Tamil+Eng] - 900MB - Movcr

http://www.imdb.com/title/tt2283362/
General
Complete name : www.movcr.com - Jumanji Welcome to the Jungle (2017) HD-TS x264 Multi Auds-[Telugu+Tamil+Eng] - 900MB - Movcr.mkv
Format : Matroska
Format version : Version 4 / Version 2
File size : 895 MiB
Duration : 1 h 48 min
Overall bit rate mode : Variable
Overall bit rate : 1 149 kb/s
Movie name : www.movcr.com
Encoded date : UTC 2017-12-30 06:28:14
Writing application : mkvmerge v17.0.0 ('Be Ur Friend') 64-bit
Writing library : libebml v1.3.5 + libmatroska v1.4.8

Video
ID : 1
Format : AVC
Format/Info : Advanced Video Codec
Format profile : [email protected]
Format settings : CABAC / 4 Ref Frames
Format settings, CABAC : Yes
Format settings, RefFrames : 4 frames
Codec ID : V_MPEG4/ISO/AVC
Duration : 1 h 48 min
Bit rate : 792 kb/s
Width : 720 pixels
Height : 320 pixels
Display aspect ratio : 2.25:1
Frame rate mode : Constant
Frame rate : 29.970 (30000/1001) FPS
Color space : YUV
Chroma subsampling : 4:2:0
Bit depth : 8 bits
Scan type : Progressive
Bits/(Pixel*Frame) : 0.115
Stream size : 618 MiB (69%)
Title : www.movcr.com
Writing library : x264 core 112
Encoding settings : cabac=1 / ref=2 / deblock=1:0:0 / analyse=0x1:0x111 / me=hex / subme=6 / psy=1 / psy_rd=1.00:0.00 / mixed_ref=0 / me_range=16 / chroma_me=1 / trellis=0 / 8x8dct=0 / cqm=0 / deadzone=21,11 / fast_pskip=1 / chroma_qp_offset=-2 / threads=12 / sliced_threads=0 / nr=0 / decimate=1 / interlaced=0 / constrained_intra=0 / bframes=2 / b_pyramid=2 / b_adapt=1 / b_bias=0 / direct=1 / weightb=0 / open_gop=0 / weightp=2 / keyint=300 / keyint_min=29 / scenecut=40 / intra_refresh=0 / rc_lookahead=40 / rc=abr / mbtree=1 / bitrate=792 / ratetol=1.0 / qcomp=0.60 / qpmin=3 / qpmax=51 / qpstep=4 / ip_ratio=1.40 / aq=1:1.00
Language : English
Default : Yes
Forced : No
Color range : Limited
Color primaries : BT.601 NTSC
Transfer characteristics : BT.709
Matrix coefficients : BT.601

Audio #1
ID : 2
Format : MPEG Audio
Format version : Version 1
Format profile : Layer 3
Format settings : Joint stereo / MS Stereo
Codec ID : A_MPEG/L3
Codec ID/Hint : MP3
Duration : 1 h 48 min
Bit rate mode : Variable
Bit rate : 96.0 kb/s
Channel(s) : 2 channels
Sampling rate : 48.0 kHz
Frame rate : 41.667 FPS (1152 SPF)
Compression mode : Lossy
Stream size : 74.5 MiB (8%)
Title : www.movcr.com
Writing library : LAME3.99r
Encoding settings : -m j -V 4 -q 3 -lowpass 15.1 --abr 96
Language : Telugu
Default : No
Forced : No

Audio #2
ID : 3
Format : MPEG Audio
Format version : Version 1
Format profile : Layer 3
Format settings : Joint stereo / MS Stereo
Codec ID : A_MPEG/L3
Codec ID/Hint : MP3
Duration : 1 h 48 min
Bit rate mode : Constant
Bit rate : 128 kb/s
Channel(s) : 2 channels
Sampling rate : 44.1 kHz
Frame rate : 38.281 FPS (1152 SPF)
Compression mode : Lossy
Stream size : 99.7 MiB (11%)
Title : www.movcr.com
Writing library : LAME3.98.2
Language : Tamil
Default : No
Forced : No

Audio #3
ID : 4
Format : AAC
Format/Info : Advanced Audio Codec
Format profile : LC
Codec ID : A_AAC-2
Duration : 1 h 48 min
Bit rate : 128 kb/s
Channel(s) : 2 channels
Channel positions : Front: L R
Sampling rate : 48.0 kHz
Frame rate : 46.875 FPS (1024 SPF)
Compression mode : Lossy
Stream size : 99.6 MiB (11%)
Title : www.movcr.com
Language : English
Default : Yes
Forced : No








Sharing Widget


Download torrent
Size: 909.8 MB (953994444 Bytes)
seeders:23
leechers:12
Jumanji Welcome to the Jungle (2017) HD-TS x264 Multi Auds-[Telug...



To share this torrent use the code below and insert it into comments, status messages, forum posts or your signature.

Torrent: Jumanji Welcome to the Jungle (2017) HD-TS x264 Multi Auds-[Telug...

Trackers

tracker name
udp://tracker.openbittorrent.com:80/announce
udp://tracker.coppersurfer.tk:6969/announce
udp://zer0day.ch:1337/announce
udp://tracker.leechers-paradise.org:6969/announce
udp://9.rarbg.com:2710/announce
udp://p4p.arenabg.com:1337/announce
udp://tracker.sktorrent.net:6969/announce
http://p4p.arenabg.com:1337/announce
udp://tracker.zer0day.to:1337/announce
udp://tracker.leechers-paradise.org:6969/announce
udp://coppersurfer.tk:6969/announce
µTorrent compatible trackers list

Locations

name
KickassTorrents
Torrent hash: 15AC1CCCCC9D3DEAC3043636FF9C29C879D22807

All Comments

audio
0/10
video
0/10
please, leave only comments related to that torrent
Sign In

Report a bug