Lucky 2017 720p WEB-DL x264 AC3-RiPRG

seeders: 26
leechers: 6
updated:
Added by lyrical2010 in Other


Lucky 2017 720p WEB-DL x264 AC3-RiPRG Size: 1.0 GB (1073741824 Bytes)

Description



Lucky 2017 720p WEB-DL x264 AC3-RiPRG

The spiritual journey of a ninety-year-old atheist.

http://www.imdb.com/title/tt5859238/

General

Format : Matroska
Format version : Version 4 / Version 2
File size : 1.05 GiB
Duration : 1h 28mn
Overall bit rate : 1 704 Kbps
Movie name : RiPRG

Video

ID : 1
Format : AVC
Format/Info : Advanced Video Codec
Format profile : [email protected]
Format settings, CABAC : Yes
Format settings, ReFrames : 4 frames
Codec ID : V_MPEG4/ISO/AVC
Duration : 1h 28mn
Bit rate : 1 500 Kbps
Width : 1 280 pixels
Height : 532 pixels
Display aspect ratio : 2.40:1
Frame rate mode : Constant
Frame rate : 23.976 (24000/1001) fps
Color space : YUV
Chroma subsampling : 4:2:0
Bit depth : 8 bits
Scan type : Progressive
Bits/(Pixel*Frame) : 0.092
Stream size : 911 MiB (85%)
Writing library : x264 core 148
Default : Yes
Forced : No
Color range : Limited
Color primaries : BT.709
Transfer characteristics : BT.709
Matrix coefficients : BT.709

Audio

ID : 2
Format : AC-3
Format/Info : Audio Coding 3
Mode extension : CM (complete main)
Format settings, Endianness : Big
Codec ID : A_AC3
Duration : 1h 28mn
Bit rate mode : Constant
Bit rate : 224 Kbps
Channel(s) : 6 channels
Channel positions : Front: L C R, Side: L R, LFE
Sampling rate : 48.0 KHz
Frame rate : 31.250 fps (1536 spf)
Compression mode : Lossy
Delay relative to video : -47ms
Stream size : 141 MiB (13%)
Title : Surround
Language : English
Default : Yes
Forced : No




Sharing Widget


Download torrent
Size: 1.0 GB (1073741824 Bytes)
seeders:26
leechers:6
Lucky 2017 720p WEB-DL x264 AC3-RiPRG



To share this torrent use the code below and insert it into comments, status messages, forum posts or your signature.

Torrent: Lucky 2017 720p WEB-DL x264 AC3-RiPRG

Trackers

tracker name
udp://tracker.leechers-paradise.org:6969/announce
udp://tracker.coppersurfer.tk:6969/announce
udp://tracker.opentrackr.org:1337/announce
udp://public.popcorn-tracker.org:6969/announce
udp://p4p.arenabg.ch:1337/announce
udp://tracker.pirateparty.gr:6969/announce
udp://tracker.vanitycore.co:6969/announce
udp://tracker.torrent.eu.org:451/announce
udp://tracker.tiny-vps.com:6969/announce
udp://tracker.mg64.net:6969/announce
udp://tracker.zer0day.to:1337/announce
udp://eddie4.nl:6969/announce
udp://tracker.zer0day.to:1337/announce
udp://tracker.leechers-paradise.org:6969/announce
udp://coppersurfer.tk:6969/announce
µTorrent compatible trackers list

Locations

name
KickassTorrents
Torrent hash: F08BF331CD7B9BEBB85544561250E388E339C39B

All Comments

audio
0/10
video
0/10
please, leave only comments related to that torrent
Sign In

Report a bug