The Light of the Moon 2017 1080p WEBRip 6CH AAC x264 - EiE

seeders: 25
leechers: 8
updated:
Added by samcode4u in Other
Torrent reliable.


Description






Click on the link to see Screenshot:



http://lensdump.com/i/lGiqq

http://lensdump.com/i/lGWjD

http://lensdump.com/i/lG0hM

http://lensdump.com/i/lGjYA



Code:


Video
ID : 1
Format : AVC
Format/Info : Advanced Video Codec
Format settings : CABAC / 4 Ref Frames
Format settings, CABAC : Yes
Format settings, RefFrames : 4 frames
Codec ID : avc1
Codec ID/Info : Advanced Video Coding
Duration : 1 h 34 min
Bit rate : 2 081 kb/s
Maximum bit rate : 14.7 Mb/s
Width : 1 904 pixels
Height : 792 pixels
Display aspect ratio : 2.40:1
Frame rate mode : Constant
Frame rate : 23.976
Color space : YUV
Chroma subsampling : 4:2:0
Bit depth : 8 bits
Scan type : Progressive
Bits/(Pixel*Frame) : 0.058
Stream size : 1.37 GiB (92%)

Audio
ID : 2
Format : AAC
Format/Info : Advanced Audio Codec
Format profile : LC
Codec ID : mp4a-40-2
Duration : 1 h 34 min
Bit rate mode : Variable
Bit rate : 192 kb/s
Maximum bit rate : 319 kb/s
Channel(s) : 6 channels
Channel positions : Front: L C R, Side: L R, LFE
Sampling rate : 48.0 kHz
Compression mode : Lossy
Stream size : 127 MiB (8%)
Language : English


Sharing Widget


Download torrent
Size: 1.5 GB (1610612736 Bytes)
seeders:25
leechers:8
The Light of the Moon 2017 1080p WEBRip 6CH AAC x264 - EiE



To share this torrent use the code below and insert it into comments, status messages, forum posts or your signature.

Torrent: The Light of the Moon 2017 1080p WEBRip 6CH AAC x264 - EiE

Trackers

tracker name
udp://tracker.coppersurfer.tk:80/announce
udp://eddie4.nl:6969/announce
udp://p4p.arenabg.com:1337/announce
udp://shadowshq.yi.org:6969/announce
udp://thetracker.org:80/announce
udp://tracker.grepler.com:6969/announce
udp://tracker.internetwarriors.net:1337/announce
udp://tracker.opentrackr.org:1337/announce
udp://tracker.pirateparty.gr:6969/announce
udp://tracker.torrent.eu.org:451/announce
udp://tracker.vanitycore.co:6969/announce
udp://tracker.zer0day.to:1337/announce
udp://tracker.zer0day.to:1337/announce
udp://tracker.leechers-paradise.org:6969/announce
udp://coppersurfer.tk:6969/announce
µTorrent compatible trackers list

Locations

name
KickassTorrents
Torrent hash: 30E5A2A540BA12F6ED03E5CA642EAB4EC65B39CD

All Comments

audio
0/10
video
0/10
please, leave only comments related to that torrent
Sign In

Report a bug