Vienna.Philharmonic.New.Years.Concert.2018.WEB-DL.720p.AAC2.0.x26...

seeders: 38
leechers: 2
updated:
Added by diguoemo in Other


Description

Audio track 2 is bbc radio 3 320k AAC 2.0.No half-time break Audio.






Music Selections:
Franz von Suppe – Boccaccio, Overture
Johann Strauss –Myrtle Blossoms, Waltz (Augarten)
Alphons Czibulka – Stéphanie-Gavotte
Johann Strauss – Magic Bullets, Quick Polka
Johann Strauss –Tales from the Vienna Woods, Waltz
Johann Strauss – Festive March
Johann Strauss – A Masked Ball
Johann Strauss – Roses from the South, Waltz
Josef Strauss – Letter to the Editor, Quick Polka
Encores:
Johann Strauss – Thunder and Lightning, Quick Polka
Johann Strauss – On the Beautiful Blue Danube, Waltz
Johann Strauss, Sr. – Radetzky March

Code:

General
Unique ID : 199633318612972472802996069030916226657 (0x962FFA86EED04FAB926E7525E1CF7E61)
Complete name : E:\Vienna.Philharmonic.New.Years.Concert.2018.WEB-DL.720p.AAC2.0.x264-BBCiplayer\Vienna.Philharmonic.New.Years.Concert.2018.WEB-DL.720p.AAC2.0.x264-BBCiplayer.mkv
Format : Matroska
Format version : Version 4 / Version 2
File size : 2.99 GiB
Duration : 2 h 48 min
Overall bit rate mode : Variable
Overall bit rate : 2 547 kb/s
Encoded date : UTC 2018-01-01 18:45:04
Writing application : mkvmerge v18.0.0 ('Apricity') 64-bit
Writing library : libebml v1.3.5 + libmatroska v1.4.8

Video
ID : 1
Format : AVC
Format/Info : Advanced Video Codec
Format profile : [email protected]
Format settings : CABAC / 2 Ref Frames
Format settings, CABAC : Yes
Format settings, ReFrames : 2 frames
Codec ID : V_MPEG4/ISO/AVC
Duration : 2 h 35 min
Bit rate mode : Variable
Bit rate : 2 302 kb/s
Maximum bit rate : 3 500 kb/s
Width : 1 280 pixels
Height : 720 pixels
Display aspect ratio : 16:9
Frame rate mode : Constant
Frame rate : 25.000 FPS
Color space : YUV
Chroma subsampling : 4:2:0
Bit depth : 8 bits
Scan type : Progressive
Bits/(Pixel*Frame) : 0.100
Stream size : 2.51 GiB (84%)
Default : Yes
Forced : No

Audio #1
ID : 2
Format : AAC
Format/Info : Advanced Audio Codec
Format profile : LC
Codec ID : A_AAC-2
Duration : 2 h 35 min
Bit rate : 93.4 kb/s
Channel(s) : 2 channels
Channel positions : Front: L R
Sampling rate : 48.0 kHz
Frame rate : 46.875 FPS (1024 SPF)
Compression mode : Lossy
Delay relative to video : -40 ms
Stream size : 104 MiB (3%)
Title : BBC 2 96k AAC
Language : English
Default : Yes
Forced : No

Audio #2
ID : 3
Format : AAC
Format/Info : Advanced Audio Codec
Format profile : LC
Codec ID : A_AAC-2
Duration : 2 h 48 min
Bit rate : 320 kb/s
Channel(s) : 2 channels
Channel positions : Front: L R
Sampling rate : 48.0 kHz
Frame rate : 46.875 FPS (1024 SPF)
Compression mode : Lossy
Delay relative to video : 960 ms
Stream size : 385 MiB (13%)
Title : BBC Radio 3 320k AAC
Language : English
Default : No
Forced : No


Sharing Widget


Download torrent
Size: 3.0 GB (3221225472 Bytes)
seeders:38
leechers:2
Vienna.Philharmonic.New.Years.Concert.2018.WEB-DL.720p.AAC2.0.x26...



To share this torrent use the code below and insert it into comments, status messages, forum posts or your signature.

Torrent: Vienna.Philharmonic.New.Years.Concert.2018.WEB-DL.720p.AAC2.0.x26...

Trackers

tracker name
UDP://TRACKER.LEECHERS-PARADISE.ORG:6969/ANNOUNCE
UDP://TRACKER.COPPERSURFER.TK:6969/ANNOUNCE
UDP://TRACKER.OPENTRACKR.ORG:1337/ANNOUNCE
UDP://TRACKER.ZER0DAY.TO:1337/ANNOUNCE
UDP://EDDIE4.NL:6969/ANNOUNCE
udp://tracker.zer0day.to:1337/announce
udp://tracker.leechers-paradise.org:6969/announce
udp://coppersurfer.tk:6969/announce
µTorrent compatible trackers list

Locations

name
KickassTorrents
Torrent hash: 893E6873FD3AFFC2DE9E99B175E0960336481462

All Comments

audio
0/10
video
0/10
please, leave only comments related to that torrent
Sign In

Report a bug